12272 uploads
36128 pageviews

CONTACT
 

Unknown...SuperBits

Logan.Lucky.2017.1080p.WEB-DL.DD5.1.H264-FGT

Kategori: 720p Movie Storlek: 4.09 GiB Video D : 1 Format : AVC Format/nfo : Advanced Video Codec Format profile : HighL4 Format settings : CABAC / 5 Ref Frames Format settings CABAC : Yes Format settings ReFrames : 5 frames Codec D : V_MPEG4/SO/AVC Duration : 1 h 59 min Bit rate : 4 433 kb/s Width : 1 920 pixels Height : 804 pixels Display aspect ratio : 2.40:1 Frame rate mode : Constant Frame rate : 23.976 24000/1001 FPS Color space : YUV Chroma subsampling : 4:2:0 Bit depth : 8 bits Scan type : Progressive Bits/PixelFrame : 0.120 Stream size : 3.69 GiB 90 Title : Logan.Lucky 2017.1080p.WEB-DL.DD5.1.H264-FGT Language : English Default : Yes Forced : No Color range : Limited Color primaries : BT.709 Transfer characteristics : BT.709 Matrix coefficients : BT.709 Audio D : 2 Format : AC-3 Format/nfo : Audio Coding 3 Codec D : A_AC3 Duration : 1 h 59 min Bit rate mode : Constant Bit rate : 384 kb/s Channels : 6 channels Channel positions : Front: L C R Side: L R LFE Sampling rate : 48.0 kHz Frame rate : 31.250 FPS 1536 SPF Bit depth : 16 bits Compression mode : Lossy Delay relative to video : -42 ms Stream size : 327 MiB 8 Title : Logan.Lucky 2017.1080p.WEB-DL.DD5.1.H264-FGT Language : English Service kind : Complete Main Default : Yes Forced : No Text D : 3 Format : UTF-8 Codec D : S_TEXT/UTF8 Codec D/nfo : UTF-8 Plain Text Language : English Default : Yes Forced : No Menu 00:00:00.000 : en:1 00:05:42.717 : en:2 00:07:34.203 : en:3 00:10:41.932 : en:4 00:16:25.025 : en:5 00:21:24.282 : en:6 00:29:09.747 : en:7 00:36:04.703 : en:8 00:41:50.423 : en:9 00:47:12.077 : en:10 00:50:09.879 : en:11 00:54:41.525 : en:12 00:57:28.149 : en:13 00:59:17.466 : en:14 01:04:38.286 : en:15 01:07:28.873 : en:16 01:12:13.908 : en:17 01:17:51.245 : en:18 01:19:21.418 : en:19 01:24:03.908 : en:20 01:28:34.094 : en:21 01:32:42.509 : en:22 01:42:28.428 : en:23 01:46:08.648 : en:24 01:50:51.931 : en:25 01:54:56.258 : en:26
Creeper
Powered By: