12273 uploads
36164 pageviews

CONTACT
 

Unknown...SuperBits

Tulip.Fever.2017.1080p.WEB-DL.DD5.1.H264-FGT

Kategori: 720p Movie Storlek: 3.62 GiB Complete name : Tulip.Fever.2017.1080p.WEB-DL.DD5.1.H264-FGT.mkv Format : Matroska Format version : Version 4 / Version 2 File size : 3.62 GiB Duration : 1h 44mn Overall bit rate : 4 944 Kbps Movie name : Tulip.Fever.2017.1080p.WEB-DL.DD5.1.H264-FGT Encoded date : UTC 2017-11-14 06:46:00 Writing application : mkvmerge v17.0.0 Be Ur Friend 64-bit Writing library : libebml v1.3.5 libmatroska v1.4.8 Attachements : small_cover.jpg / small_cover_land.jpg / cover.jpg / cover_land.jpg Video D : 1 Format : AVC Format/nfo : Advanced Video Codec Format profile : HighL4.0 Format settings CABAC : Yes Format settings ReFrames : 5 frames Codec D : V_MPEG4/SO/AVC Duration : 1h 44mn Bit rate : 4 461 Kbps Width : 1 920 pixels Height : 802 pixels Display aspect ratio : 2.40:1 Frame rate mode : Constant Frame rate : 24.000 fps Color space : YUV Chroma subsampling : 4:2:0 Bit depth : 8 bits Scan type : Progressive Bits/PixelFrame : 0.121 Stream size : 3.27 GiB 90 Title : Tulip.Fever.2017.1080p.WEB-DL.DD5.1.H264-FGT Language : English Default : Yes Forced : No Color primaries : BT.709 Transfer characteristics : BT.709 Matrix coefficients : BT.709 Audio D : 2 Format : AC-3 Format/nfo : Audio Coding 3 Mode extension : CM complete main Format settings Endianness : Big Codec D : A_AC3 Duration : 1h 44mn Bit rate mode : Constant Bit rate : 384 Kbps Channels : 6 channels Channel positions : Front: L C R Side: L R LFE Sampling rate : 48.0 KHz Bit depth : 16 bits Compression mode : Lossy Stream size : 288 MiB 8 Title : Tulip.Fever.2017.1080p.WEB-DL.DD5.1.H264-FGT Language : English Default : Yes Forced : No Menu 00:00:00.000 : en:1 00:15:00.000 : en:2 00:30:00.000 : en:3 00:45:00.000 : en:4 01:00:00.000 : en:5 01:15:00.000 : en:6 01:30:00.000 : en:7 01:37:25.000 : en:8
Creeper
Powered By: