Castle.Falls.2021.NORDIC.1080p.BluRay.x264-PiGNUS

NBS

Kategori: Filmer - H.264 - HD-1080p/i - Encode Scene: Nei Størrelse: 9.89 GB Status: 1 seedere og 2 leechere Hastighet: 0.00 kB/s Lagt til: 2022-01-15 07:39:01 Beskrivelse: Name: Castle.Falls.2021.NORDIC.1080p.BluRay.x264-PiGNUS Release date: 30-12-2021 IMDB link: http://www.imdb.com/title/tt11377298 Resolution: 1920x800 Audio: English DTS-HD Master 6ch 2715 kbps Video: 13072 kbps, CRF 16 Source: 33000 kbps Subtitles: Danish - English SDH - Norwegian - Swedish General Unique ID : 30884891487025239460859694375742715915 (0x173C36B74C3753CE2758CDCD499BB80B) Complete name : Castle.Falls.2021.NORDIC.1080p.BluRay.x264-PiGNUS.mkv Format : Matroska Format version : Version 4 File size : 9.89 GiB Duration : 1 h 29 min Overall bit rate mode : Variable Overall bit rate : 15.8 Mb/s Encoded date : UTC 2021-12-30 09:59:54 Writing application : mkvmerge v64.0.0 (Willows) 64-bit Writing library : libebml v1.4.2 + libmatroska v1.6.4 Video ID : 1 Format : AVC Format/Info : Advanced Video Codec Format profile : [email protected] Format settings : CABAC / 5 Ref Frames Format settings, CABAC : Yes Format settings, Reference frames : 5 frames Codec ID : V_MPEG4/ISO/AVC Duration : 1 h 29 min Bit rate : 13.1 Mb/s Width : 1 920 pixels Height : 800 pixels Display aspect ratio : 2.40:1 Frame rate mode : Constant Frame rate : 23.976 (24000/1001) FPS Color space : YUV Chroma subsampling : 4:2:0 Bit depth : 8 bits Scan type : Progressive Bits/(Pixel*Frame) : 0.355 Stream size : 8.18 GiB (83%) Writing library : x264 core 164 r3079 d9a19f0 Encoding settings : cabac=1 / ref=5 / deblock=1:-3:-3 / analyse=0x3:0x133 / me=umh / subme=9 / psy=1 / psy_rd=1.00:0.00 / mixed_ref=1 / me_range=16 / chroma_me=1 / trellis=2 / 8x8dct=1 / cqm=0 / deadzone=21,11 / fast_pskip=1 / chroma_qp_offset=-2 / threads=25 / lookahead_threads=2 / sliced_threads=0 / nr=0 / decimate=1 / interlaced=0 / bluray_compat=0 / constrained_intra=0 / bframes=3 / b_pyramid=2 / b_adapt=2 / b_bias=0 / direct=3 / weightb=1 / open_gop=0 / weightp=2 / keyint=250 / keyint_min=23 / scenecut=40 / intra_refresh=0 / rc_lookahead=60 / rc=crf / mbtree=1 / crf=16.0 / qcomp=0.60 / qpmin=0 / qpmax=69 / qpstep=4 / ip_ratio=1.40 / aq=1:1.00 Default : Yes Forced : No Audio ID : 2 Format : DTS XLL Format/Info : Digital Theater Systems Commercial name : DTS-HD Master Audio Codec ID : A_DTS Duration : 1 h 29 min Bit rate mode : Variable Bit rate : 2 714 kb/s Channel(s) : 6 channels Channel layout : C L R Ls Rs LFE Sampling rate : 48.0 kHz Frame rate : 93.750 FPS (512 SPF) Bit depth : 24 bits Compression mode : Lossless Stream size : 1.70 GiB (17%) Language : English Default : Yes Forced : No Text ID : 3 Format : PGS Muxing mode : zlib Codec ID : S_HDMV/PGS Codec ID/Info : Picture based subtitle format used on BDs/HD-DVDs Duration : 1 h 28 min Bit rate : 35.6 kb/s Count of elements : 2666 Stream size : 22.5 MiB (0%) Title : Danish - English SDH - Norwegian - Swedish Language : English Default : No Forced : No Menu 00:00:00.000 : en:Chapter 01 00:09:28.777 : en:Chapter 02 00:18:15.636 : en:Chapter 03 00:26:34.468 : en:Chapter 04 00:33:41.436 : en:Chapter 05 00:41:31.322 : en:Chapter 06 00:48:32.284 : en:Chapter 07 00:52:09.793 : en:Chapter 08 00:56:51.158 : en:Chapter 09 01:05:27.799 : en:Chapter 10 01:13:03.296 : en:Chapter 11 01:24:06.416 : en:Chapter 12 01:29:33.368 : en:Chapter 13

After decades of neglect, Castle Heights Hospital, this symbol of the city's segregated past has been packed with dynamite and is ready to be demolished. No one knows that a gang leader, now in prison, hid the 3 million dollars in cash he stole from his rivals inside the abandoned building. Now, three desperate parties want the money - a blue collared ex-fighter (Adkins) who finds it while working as part of the demolition crew, a prison guard (Lundgren) willing to do anything to pay for his daughter's cancer treatment and a ruthless gang who claim to be the rightful owners. The demolition charges are set, everyone clears out and the Castle is set to fall in 90 minutes. The clock is ticking. Who will find the cash and: will they get out alive? Written by VMI Worldwide