The.Invincible.Iron.Man.2007.1080p.BluRay.x264.DTS-FGT

SB

Kategori: 720p Movie Storlek: 4.36 GiB VideoD : 1Format : AVCFormat/nfo : Advanced Video CodecFormat profile : HighL5Format settings : CABAC / 5 Ref FramesFormat settings CABAC : YesFormat settings Reference frames : 5 framesCodec D : V_MPEG4/SO/AVCDuration : 1 h 23 minBit rate : 6 000 kb/sWidth : 1 920 pixelsHeight : 1 080 pixelsDisplay aspect ratio : 16:9Frame rate mode : ConstantFrame rate : 23.976 FPSColor space : YUVChroma subsampling : 4:2:0Bit depth : 8 bitsScan type : ProgressiveBits/PixelFrame : 0.121Stream size : 3.40 GiB 78Title : 6 Mbp/s AVC H264Writing library : x264 core 64 r987M e71168dDefault : YesForced : NoAudioD : 2Format : DTSFormat/nfo : Digital Theater SystemsCodec D : A_DTSDuration : 1 h 23 minBit rate mode : ConstantBit rate : 1 509 kb/sChannels : 6 channelsChannel layout : C L R Ls Rs LFESampling rate : 48.0 kHzFrame rate : 93.750 FPS 512 SPFBit depth : 24 bitsCompression mode : LossyStream size : 896 MiB 20Language : EnglishDefault : YesForced : NoTextD : 3