The.BFG.2016.SWEDiSH.2160p.DSNP.WEB-DL.x265.10bit-KLiPPOKLiSTRA

SB

Kategori: Storlek: 7.67 GiB Audio: The.BFG.2016.NORDC.TrueHD.Atmos.AC3.NORDCSUBS.1080p.BluRay.x264.HQ-TUSAHDVideo: The.BFG.2016.2160p.DSNP.WEB-DL.x265.10bit.HDR.DTS-HD.MA.TrueHD.7.1.Atmos-SWTYBLZFormat : MatroskaFormat version : Version 4File size : 7.67 GiBDuration : 1 h 56 minOverall bit rate : 9 397 kb/sMovie name : The.BFG.2016.2160p.DSNP.WEB-DL.x265.10bit.HDR.DTS-HD.MA.TrueHD.7.1.Atmos-SWTYBLZEncoded date : UTC 2022-01-14 20:57:16Writing application : mkvmerge v63.0.0 Everything 64-bitWriting library : libebml v1.4.2 libmatroska v1.6.4 / Lavf58.76.100VideoD : 1Format : AVCFormat/nfo : Advanced Video CodecFormat profile : MainL4HDR format : SMPTE ST 2086 HDR10 compatibleFormat settings : CABAC / 1 Ref FramesFormat settings CABAC : YesFormat settings Reference frames : 1 frameCodec D : V_MPEG4/SO/AVCDuration : 1 h 56 minBit rate : 9 090 kb/sWidth : 3 840 pixelsHeight : 1 604 pixelsDisplay aspect ratio : 2.40:1Frame rate mode : ConstantFrame rate : 23.976 23976/1000 FPSColor space : YUVChroma subsampling : 4:2:0Bit depth : 8 bitsScan type : ProgressiveBits/PixelFrame : 0.062Stream size : 7.40 GiB 97Writing library : x264 core 163 r3059 b684ebe0Encoding settings : cabac1 / ref1 / deblock1:0:0 / analyse0x1:0x111 / mehex / subme6 / psy1 / psy_rd1.00:0.00 / mixed_ref0 / me_range16 / chroma_me1 / trellis1 / 8x8dct0 / cqm0 / deadzone2111 / fast_pskip1 / chroma_qp_offset-2 / threads12 / lookahead_threads2 / sliced_threads0 / nr0 / decimate1 / interlaced0 / bluray_compat0 / constrained_intra0 / bframes0 / weightp1 / keyint240 / keyint_min24 / scenecut40 / intra_refresh0 / rc_lookahead30 / rccrf / mbtree1 / crf22.0 / qcomp0.60 / qpmin0 / qpmax69 / qpstep4 / vbv_maxrate20000 / vbv_bufsize25000 / crf_max0.0 / nal_hrdnone / filler0 / ip_ratio1.40 / aq1:1.00Default : YesForced : NoColor range : LimitedColor primaries : BT.2020Transfer characteristics : PQMatrix coefficients : BT.2020 non-constantMastering display color primaries : Display P3Mastering display luminance : min: 0.0001 cd/m2 max: 1000 cd/m2Audio 1D : 2Format : AAC LCFormat/nfo : Advanced Audio Codec Low ComplexityCodec D : A_AAC-2Duration : 1 h 56 minBit rate : 160 kb/sChannels : 2 channelsChannel layout : L RSampling rate : 48.0 kHzFrame rate : 46.875 FPS 1024 SPFCompression mode : LossyDelay relative to video : 656 msStream size : 134 MiB 2Title : Swedish AC3 StereoLanguage : SwedishDefault : YesForced : NoAudio 2D : 3Format : AAC LCFormat/nfo : Advanced Audio Codec Low ComplexityCodec D : A_AAC-2Duration : 1 h 56 minBit rate : 161 kb/sChannels : 2 channelsChannel layout : L RSampling rate : 48.0 kHzFrame rate : 46.875 FPS 1024 SPFCompression mode : LossyDelay relative to video : -44 msStream size : 134 MiB 2Title : English TrueHD 7.1 AtmosLanguage : EnglishDefault : NoForced : NoMenu00:06:49.686 : :00:07:24.69400:11:19.497 : :00:11:54.46400:18:19.833 : :00:18:54.84200:22:40.302 : :00:23:15.31100:24:28.285 : :00:25:03.25200:27:36.640 : :00:28:11.64800:36:12.155 : :00:36:47.12200:40:49.140 : :00:41:24.10700:45:13.779 : :00:45:48.78800:51:26.693 : :00:52:01.70200:57:10.870 : :00:57:45.83701:02:26.519 : :01:03:01.52801:10:57.655 : :01:11:32.66301:15:17.122 : :01:15:52.08901:25:22.143 : :01:25:57.15201:35:43.598 : :01:36:18.60601:40:54.366 : :01:41:29.37501:45:30.267 : :01:46:05.15001:48:22.439 : :01:48:57.197